MegaroMania collection - Anekan,Erotic school cultural festival,Honey hole,Sakura,Kanon finds out about sex,Little Yuka,Loli bitch idol Mika,Loops (lol),Nagisa and Honoka,Cattleya,RD,Airfield girl,Warm little girl's milk [small breast, various]

Ответить на тему
Статистика раздачи
Размер:  3.82 GB   |    Зарегистрирован:  2 года 7 месяца   |    Скачан:  10 раза
Сидов:  5  [  0 KB/s  ]   Личеров:  6  [  0 KB/s  ]   Подробная статистика пиров
 
   
 
 
Автор Сообщение

Magnat ®

Пол: Мужской

Стаж: 3 года 2 месяца

Сообщений: 14302

Откуда: почти Москва

Создавать темы 25-Янв-2018 17:24

[Цитировать]

Anekan
姉姦

Год выпуска: 2006
Жанр: incest, rape, twins, group, big breast
Серии: ep. 1 of 1
Продолжительность: 4mn
Цензура: Есть во всех файлах
Озвучка: Японская оригинальная
Студия: MegaroMania
Описание: Identical twins finalize preparations to rape their older sister... They has their first time sex with the older sister, ends up cumming in her p**sy and anal at the same time.
Качество видео: WEB-DL
Разрешение видео: 480p
Формат видео: MP4
Видео: 640-480, 4-3, 24 fps, AVC, 499 kbps
Аудио: jpn, AAC, Mono, 44.1 - 22.05 KHz, 13,7 kbps

Скринлист

MediaInfo

General
Complete name : Anekan_(2006)_[5CC878DF].mp4
Format : MPEG-4
Format profile : Base Media
Codec ID : isom (isom/avc1)
File size : 16.1 MiB
Duration : 4 min 20 s
Overall bit rate mode : Variable
Overall bit rate : 517 kb/s
Encoded date : UTC 2017-05-23 19:27:17
Tagged date : UTC 2017-05-23 19:27:17
Video
ID : 1
Format : AVC
Format/Info : Advanced Video Codec
Format profile : Main@L4
Format settings, CABAC : Yes
Format settings, ReFrames : 8 frames
Codec ID : avc1
Codec ID/Info : Advanced Video Coding
Duration : 4 min 20 s
Bit rate : 499 kb/s
Maximum bit rate : 1 714 kb/s
Width : 640 pixels
Height : 480 pixels
Display aspect ratio : 4:3
Frame rate mode : Constant
Frame rate : 24.000 FPS
Color space : YUV
Chroma subsampling : 4:2:0
Bit depth : 8 bits
Scan type : Progressive
Bits/(Pixel*Frame) : 0.068
Stream size : 15.5 MiB (97%)
Writing library : x264 core 146 r2538 121396c
Encoding settings : cabac=1 / ref=8 / deblock=1:1:0 / analyse=0x1:0x111 / me=hex / subme=7 / psy=1 / psy_rd=0.40:0.00 / mixed_ref=1 / me_range=16 / chroma_me=1 / trellis=1 / 8x8dct=0 / cqm=0 / deadzone=21,11 / fast_pskip=1 / chroma_qp_offset=-2 / threads=12 / lookahead_threads=2 / sliced_threads=0 / nr=0 / decimate=1 / interlaced=0 / bluray_compat=0 / constrained_intra=0 / bframes=6 / b_pyramid=2 / b_adapt=1 / b_bias=0 / direct=1 / weightb=1 / open_gop=0 / weightp=2 / keyint=228 / keyint_min=22 / scenecut=40 / intra_refresh=0 / rc_lookahead=40 / rc=2pass / mbtree=1 / bitrate=499 / ratetol=1.0 / qcomp=0.60 / qpmin=10 / qpmax=51 / qpstep=4 / cplxblur=20.0 / qblur=0.5 / vbv_maxrate=20000 / vbv_bufsize=25000 / nal_hrd=none / filler=0 / ip_ratio=1.40 / aq=2:0.60
Encoded date : UTC 2017-05-23 19:27:17
Tagged date : UTC 2017-05-23 19:27:23
Audio
ID : 2
Format : AAC
Format/Info : Advanced Audio Codec
Format profile : HE-AAC / LC
Codec ID : 40
Duration : 4 min 20 s
Bit rate mode : Variable
Bit rate : 13.7 kb/s
Maximum bit rate : 18.0 kb/s
Channel(s) : 1 channel
Channel positions : Front: C
Sampling rate : 44.1 kHz / 22.05 kHz
Frame rate : 21.533 FPS (1024 spf)
Compression mode : Lossy
Stream size : 436 KiB (3%)
Language : Japanese
Encoded date : UTC 2017-05-23 19:25:00
Tagged date : UTC 2017-05-23 19:27:23
- Erotic school cultural festival
文化祭えろえろエステ

Год выпуска: 2008
Жанр: school, massage
Серии: ep. 1 of 1
Продолжительность: 11mn
Цензура: Есть во всех файлах
Озвучка: Японская оригинальная
Субтитры: Японские встроенные неотключаемые (хардсаб)
Студия: MegaroMania
Описание: Интересная идея для школьного фестиваля.
Качество видео: WEB-DL
Разрешение видео: 480p
Формат видео: WMV
Видео: 640-480, 4-3, 24 fps, VC-1 / WMV3, 2060 kbps
Аудио: jpn, WMA2, Stereo, 48.0 KHz, 192 kbps

Скринлист

MediaInfo

General
Complete name : Erotic_school_cultural_festival_(2008)_[8C15C87B].wmv
Format : Windows Media
File size : 111 MiB
Duration : 11 min 29 s
Overall bit rate mode : Constant
Overall bit rate : 1 356 kb/s
Maximum Overall bit rate : 2 272 kb/s
Encoded date : UTC 2007-12-02 17:12:18.982
Writing application : TMPGEnc 4.0 XPress Version. 4.4.0.233
Video
ID : 2
Format : VC-1
Format profile : MP@ML
Codec ID : WMV3
Codec ID/Info : Windows Media Video 9
Codec ID/Hint : WMV3
Description of the codec : Windows Media Video 9 - Professional
Duration : 11 min 29 s
Bit rate mode : Constant
Bit rate : 2 060 kb/s
Width : 640 pixels
Height : 480 pixels
Display aspect ratio : 4:3
Frame rate : 24.000 FPS
Color space : YUV
Chroma subsampling : 4:2:0
Bit depth : 8 bits
Scan type : Progressive
Compression mode : Lossy
Bits/(Pixel*Frame) : 0.279
Stream size : 169 MiB
Language : Japanese
Audio
ID : 1
Format : WMA
Format version : Version 2
Codec ID : 161
Codec ID/Info : Windows Media Audio
Description of the codec : Windows Media Audio 9.2 - 192 kbps, 48 kHz, stereo 2-pass CBR
Duration : 11 min 29 s
Bit rate mode : Constant
Bit rate : 192 kb/s
Channel(s) : 2 channels
Sampling rate : 48.0 kHz
Bit depth : 16 bits
Stream size : 15.8 MiB (14%)
Language : Japanese
- Honey hole
蜜穴 -ミツアナ-

Год выпуска: 2009
Жанр: mystic, oral, creampie
Серии: ep. 1 of 1
Продолжительность: 22mn
Цензура: Есть во всех файлах
Озвучка: Японская оригинальная
Студия: MegaroMania
Описание: Yuri, a shota boy, found a doll of lolita girl from an old jar. When he brought it to the room, the doll attacked Yuri! Yuri is forced to erect and his cock is massaged. Yuri cannot stop panting.
Маленький мальчик Юри (токо ходит почему-то в женских одеждах) нашёл куклу лолиту в старом кувшине. Когда он принёс её в комнату и поцеловал - она напала на него. И вот Юри уже лежит на кровати, член его отвердел, а дыхание стало тяжёлым.
pacpac
Качество видео: WEB-DL
Разрешение видео: 480p
Формат видео: WMV
Видео: 640-480, 4-3, 29.97 fps, VC-1 / WMV3, 2000 kbps
Аудио: jpn, WMA2, Stereo, 48.0 KHz, 192 kbps

Скринлист

MediaInfo

General
Complete name : Honey_hole_(2009)_[E8C0DA43].wmv
Format : Windows Media
File size : 245 MiB
Duration : 21 min 32 s
Overall bit rate mode : Constant
Overall bit rate : 1 592 kb/s
Maximum Overall bit rate : 2 212 kb/s
Encoded date : UTC 2009-03-15 13:55:00.359
Writing application : TMPGEnc 4.0 XPress Version. 4.5.2.255
Video
ID : 2
Format : VC-1
Format profile : MP@ML
Codec ID : WMV3
Codec ID/Info : Windows Media Video 9
Codec ID/Hint : WMV3
Description of the codec : Windows Media Video 9 - Professional
Duration : 21 min 32 s
Bit rate mode : Constant
Bit rate : 2 000 kb/s
Width : 640 pixels
Height : 480 pixels
Display aspect ratio : 4:3
Frame rate : 29.970 FPS
Color space : YUV
Chroma subsampling : 4:2:0
Bit depth : 8 bits
Scan type : Progressive
Compression mode : Lossy
Bits/(Pixel*Frame) : 0.217
Stream size : 308 MiB
Language : Japanese
Audio
ID : 1
Format : WMA
Format version : Version 2
Codec ID : 161
Codec ID/Info : Windows Media Audio
Description of the codec : Windows Media Audio 9.2 - 192 kbps, 48 kHz, stereo 1-pass CBR
Duration : 21 min 32 s
Bit rate mode : Constant
Bit rate : 192 kb/s
Channel(s) : 2 channels
Sampling rate : 48.0 kHz
Bit depth : 16 bits
Stream size : 29.6 MiB (12%)
Language : Japanese
IV - Sakura -
あいぶい-さくら-

Год выпуска: 2010
Жанр: toys, oral, creampie
Серии: ep. 1 of 1
Продолжительность: 23mn
Цензура: Есть во всех файлах
Озвучка: Японская оригинальная
Студия: MegaroMania
Описание: Erotic situation using ribbon, ball, riding horse machine, twister, balance ball, etc.
Качество видео: WEB-DL
Разрешение видео: 480p
Формат видео: WMV
Видео: 704-480, 3-2, 25 fps, VC-1 / WMV3, 1490 kbps
Аудио: jpn, WMA2, Stereo, 44.1 KHz, 64 kbps

Скринлист

MediaInfo

General
Complete name : IV_-_Sakura_(2010)_[FF1EC9D4].wmv
Format : Windows Media
File size : 265 MiB
Duration : 23 min 13 s
Overall bit rate mode : Variable
Overall bit rate : 1 598 kb/s
Maximum Overall bit rate : 6 940 kb/s
Encoded date : UTC 2010-08-06 21:05:48.231
Video
ID : 2
Format : WMV2
Codec ID : WMV2
Codec ID/Info : Windows Media Video 8
Description of the codec : Windows Media Video V8
Duration : 23 min 13 s
Bit rate mode : Variable
Bit rate : 1 490 kb/s
Width : 704 pixels
Height : 480 pixels
Display aspect ratio : 3:2
Frame rate : 25.000 FPS
Bit depth : 8 bits
Bits/(Pixel*Frame) : 0.176
Stream size : 248 MiB (93%)
Language : Spanish (MX)
Audio
ID : 1
Format : WMA
Format version : Version 2
Codec ID : 161
Codec ID/Info : Windows Media Audio
Description of the codec : Windows Media Audio 9.2 - 64 kbps, 44 kHz, stereo (A/V) 1-pass CBR
Duration : 23 min 13 s
Bit rate mode : Constant
Bit rate : 64.0 kb/s
Channel(s) : 2 channels
Sampling rate : 44.1 kHz
Bit depth : 16 bits
Stream size : 10.6 MiB (4%)
Language : Spanish (MX)
- Kanon finds out about sex
ロリ巨乳少女の快感に目覚めた性行為 かのん

Год выпуска: 2015
Жанр: masturbation, big breast
Серии: ep. 1 of 1
Продолжительность: 9mn
Цензура: Есть во всех файлах
Озвучка: Японская оригинальная
Студия: MegaroMania
Описание: An animated hentai about a lolita with a tight body and big breasts.
Качество видео: WEB-DL
Разрешение видео: 540p
Формат видео: MP4
Видео: 960-540, 16-9, 24 fps, AVC, 4000 kbps
Аудио: jpn, AAC, Stereo, 48.0 KHz, 144 kbps

Скринлист

MediaInfo

General
Complete name : Kanon_finds_out_about_sex_(2015)_[F34C0FA1].mp4
Format : MPEG-4
Format profile : Base Media
Codec ID : isom (isom/mp41)
File size : 275 MiB
Duration : 9 min 15 s
Overall bit rate mode : Constant
Overall bit rate : 4 144 kb/s
Encoded date : UTC 2015-03-18 06:45:58
Tagged date : UTC 2015-03-18 06:45:58
Video
ID : 1
Format : AVC
Format/Info : Advanced Video Codec
Format profile : Baseline@L3.1
Format settings, CABAC : No
Format settings, ReFrames : 1 frame
Format settings, GOP : M=1, N=33
Codec ID : avc1
Codec ID/Info : Advanced Video Coding
Duration : 9 min 15 s
Source duration : 9 min 15 s
Bit rate mode : Constant
Bit rate : 4 000 kb/s
Width : 960 pixels
Height : 540 pixels
Display aspect ratio : 16:9
Frame rate mode : Constant
Frame rate : 24.000 FPS
Color space : YUV
Chroma subsampling : 4:2:0
Bit depth : 8 bits
Scan type : Progressive
Bits/(Pixel*Frame) : 0.322
Stream size : 254 MiB (92%)
Source stream size : 265 MiB (96%)
Language : English
Encoded date : UTC 2015-03-18 06:45:58
Tagged date : UTC 2015-03-18 06:45:58
Color range : Limited
mdhd_Duration : 555763
Audio
ID : 2
Format : AAC
Format/Info : Advanced Audio Codec
Format profile : LC
Codec ID : 40
Duration : 9 min 15 s
Bit rate mode : Constant
Bit rate : 144 kb/s
Channel(s) : 2 channels
Channel positions : Front: L R
Sampling rate : 48.0 kHz
Frame rate : 46.875 FPS (1024 spf)
Compression mode : Lossy
Stream size : 9.52 MiB (3%)
Language : English
Encoded date : UTC 2015-03-18 06:45:58
Tagged date : UTC 2015-03-18 06:45:58
mdhd_Duration : 555844
- Little Yuka
性少年の正しい性欲処理用少女ゆか

Год выпуска: 2014
Жанр: virgin, big breast, oral
Серии: ep. 1 of 1
Продолжительность: 10mn
Цензура: Есть во всех файлах
Озвучка: Японская оригинальная
Студия: MegaroMania
Описание: A little girl with big breasts, Yuka, guides a boy through his first time. Hand-drawn animation with acts from fellatio to intercourse.
Качество видео: WEB-DL
Разрешение видео: 540p
Формат видео: MP4
Видео: 960-540, 16-9, 24 fps, MPEG 4, 3112 kbps
Аудио: jpn, AAC, Stereo, 48.0 KHz, 126 kbps

Скринлист

MediaInfo

General
Complete name : Little_Yuka_(2014)_[56C09942].mp4
Format : MPEG-4
Format profile : Base Media
Codec ID : isom (mp41)
File size : 230 MiB
Duration : 9 min 55 s
Overall bit rate mode : Variable
Overall bit rate : 3 242 kb/s
Encoded date : UTC 2014-11-21 12:35:57
Tagged date : UTC 2014-11-21 12:35:57
Writing application : GOM ENCODER (GMp4Writer 1.0)
Comment : QuickTime 6.0 or greater
Video
ID : 1
Format : MPEG-4 Visual
Format profile : Simple@L1
Format settings, BVOP : No
Format settings, QPel : No
Format settings, GMC : No warppoints
Format settings, Matrix : Default (H.263)
Codec ID : 20
Duration : 9 min 55 s
Source duration : 9 min 55 s
Bit rate mode : Variable
Bit rate : 3 112 kb/s
Maximum bit rate : 4 246 kb/s
Width : 960 pixels
Height : 540 pixels
Display aspect ratio : 16:9
Frame rate mode : Variable
Frame rate : 24.000 FPS
Minimum frame rate : 23.990 FPS
Maximum frame rate : 24.232 FPS
Color space : YUV
Chroma subsampling : 4:2:0
Bit depth : 8 bits
Scan type : Progressive
Compression mode : Lossy
Bits/(Pixel*Frame) : 0.250
Stream size : 221 MiB (96%)
Source stream size : 221 MiB (96%)
Writing library : Lavc54.14.0
Language : English
Encoded date : UTC 2014-11-21 12:35:57
Tagged date : UTC 2014-11-21 12:35:57
mdhd_Duration : 595667
Audio
ID : 2
Format : AAC
Format/Info : Advanced Audio Codec
Format profile : LC
Codec ID : 40
Duration : 9 min 55 s
Source duration : 9 min 55 s
Bit rate mode : Variable
Bit rate : 126 kb/s
Maximum bit rate : 257 kb/s
Channel(s) : 2 channels
Channel positions : Front: L R
Sampling rate : 48.0 kHz
Frame rate : 46.875 FPS (1024 spf)
Compression mode : Lossy
Stream size : 8.96 MiB (4%)
Source stream size : 8.96 MiB (4%)
Language : English
Encoded date : UTC 2014-11-21 12:35:57
Tagged date : UTC 2014-11-21 12:35:57
mdhd_Duration : 595604
- Loli bitch idol - Mika
ロリビッチアイドル ミカ

Год выпуска: 2014
Жанр: idol, toys, oral
Серии: ep. 1 of 1
Продолжительность: 22mn
Цензура: Есть во всех файлах
Озвучка: Японская оригинальная
Студия: MegaroMania
Описание: These are the things loli slut idol Mika does for her career. In the style of an idol promotional video.
Качество видео: WEB-DL
Разрешение видео: 720p
Формат видео: MPG
Видео: 1280-720, 16-9, 24 fps, MPEG, 8000 kbps
Аудио: jpn, AC-3, Stereo, 48.0 KHz, 256 kbps

Скринлист

MediaInfo

General
Complete name : Loli_bitch_idol_-_Mika_[FBDAA92C].mpg
Format : MPEG-PS
File size : 1.27 GiB
Duration : 21 min 39 s
Overall bit rate mode : Variable
Overall bit rate : 8 365 kb/s
Writing library : encoded by TMPGEnc 4.0 XPress Version. 4.7.9.311
Video
ID : 224 (0xE0)
Format : MPEG Video
Commercial name : HDV 720p
Format version : Version 2
Format profile : Main@High
Format settings, BVOP : Yes
Format settings, Matrix : Custom
Format settings, GOP : M=3, N=13
Duration : 21 min 39 s
Bit rate mode : Variable
Bit rate : 8 000 kb/s
Width : 1 280 pixels
Height : 720 pixels
Display aspect ratio : 16:9
Frame rate : 24.000 FPS
Standard : Component
Color space : YUV
Chroma subsampling : 4:2:0
Bit depth : 8 bits
Scan type : Progressive
Compression mode : Lossy
Bits/(Pixel*Frame) : 0.362
Time code of first frame : 00:00:00:00
Time code source : Group of pictures header
GOP, Open/Closed : Closed
Stream size : 1.20 GiB (95%)
Writing library : TMPGEnc XPress 4.7.9.311
Color primaries : BT.709
Transfer characteristics : BT.709
Matrix coefficients : BT.709
Audio
ID : 189 (0xBD)-128 (0x80)
Format : AC-3
Format/Info : Audio Coding 3
Format settings, Endianness : Big
Muxing mode : DVD-Video
Duration : 21 min 39 s
Bit rate mode : Constant
Bit rate : 256 kb/s
Channel(s) : 2 channels
Channel positions : Front: L R
Sampling rate : 48.0 kHz
Frame rate : 31.250 FPS (1536 spf)
Bit depth : 16 bits
Compression mode : Lossy
Stream size : 39.7 MiB (3%)
Service kind : Complete Main
- Loops (lol)
ループス(笑)

Год выпуска: 2014
Жанр: cosplay, yuri, oral, creampie, small breast
Серии: ep. 1 of 1
Продолжительность: 26mn
Цензура: Есть во всех файлах
Озвучка: Японская оригинальная
Субтитры: Японские встроенные неотключаемые (хардсаб)
Студия: MegaroMania
Описание: An escort-style PreC*re animated movie. Two certain magical girls went to a love hotel styled like a public train to meet a john for some roleplaying molestation. In the lavish bathroom area they had intercourse with him ending in a facial, then went back into the bedroom for some lesbian play, another f*ck... Yayoi and Miyuki really got into it!
Качество видео: WEB-DL
Разрешение видео: 540p
Формат видео: MP4
Видео: 960-540, 16-9, 24 fps, AVC, 2130 kbps
Аудио: jpn, AAC, Stereo, 48.0 KHz, 128 kbps

Скринлист

MediaInfo

General
Complete name : Loops_(lol)_(2014)_[7133E597].mp4
Format : MPEG-4
Format profile : Base Media
Codec ID : isom (mp41)
File size : 424 MiB
Duration : 26 min 14 s
Overall bit rate mode : Variable
Overall bit rate : 2 262 kb/s
Encoded date : UTC 2014-06-24 17:00:22
Tagged date : UTC 2014-06-24 17:00:22
Writing application : GOM ENCODER (GMp4Writer 1.0)
Comment : QuickTime 6.0 or greater
Video
ID : 1
Format : AVC
Format/Info : Advanced Video Codec
Format profile : Main@L3.1
Format settings, CABAC : Yes
Format settings, ReFrames : 1 frame
Codec ID : avc1
Codec ID/Info : Advanced Video Coding
Duration : 26 min 14 s
Source duration : 26 min 14 s
Bit rate : 2 130 kb/s
Width : 960 pixels
Height : 540 pixels
Display aspect ratio : 16:9
Frame rate mode : Variable
Frame rate : 24.000 FPS
Minimum frame rate : 23.990 FPS
Maximum frame rate : 24.232 FPS
Color space : YUV
Chroma subsampling : 4:2:0
Bit depth : 8 bits
Scan type : Progressive
Bits/(Pixel*Frame) : 0.171
Stream size : 400 MiB (94%)
Source stream size : 400 MiB (94%)
Language : English
Encoded date : UTC 2014-06-24 17:00:22
Tagged date : UTC 2014-06-24 17:00:22
mdhd_Duration : 1574501
Audio
ID : 2
Format : AAC
Format/Info : Advanced Audio Codec
Format profile : LC
Codec ID : 40
Duration : 26 min 14 s
Source duration : 26 min 14 s
Bit rate mode : Variable
Bit rate : 128 kb/s
Maximum bit rate : 260 kb/s
Channel(s) : 2 channels
Channel positions : Front: L R
Sampling rate : 48.0 kHz
Frame rate : 46.875 FPS (1024 spf)
Compression mode : Lossy
Stream size : 24.0 MiB (6%)
Source stream size : 24.0 MiB (6%)
Language : English
Encoded date : UTC 2014-06-24 17:00:22
Tagged date : UTC 2014-06-24 17:00:22
mdhd_Duration : 1574440
- Loops 2 - Nagisa and Honoka -
ループス2 -なぎさとほのか-

Год выпуска: 2007
Жанр: yuri, group, cosplay, creampie, small breast
Серии: ep. 1 of 1
Продолжительность: 25mn
Цензура: Есть во всех файлах
Озвучка: Японская оригинальная
Субтитры: Японские встроенные неотключаемые (хардсаб)
Студия: MegaroMania
Описание: 2 girls who met a boy through e-mail go to a love hotel and naughty action ensues! From light petting to golden showers in the bathroom, taking showers together, the two head into the bedroom for luscious lesbian action... The boy then gets to take them both -- includes cosplay sex and standard sexual action!
Качество видео: WEB-DL
Разрешение видео: 480p
Формат видео: WMV
Видео: 640-480, 4-3, 29.97 fps, VC-1 / WMV3, 1500 kbps
Аудио: jpn, WMA2, Stereo, 48.0 KHz, 192 kbps

Скринлист

MediaInfo

General
Complete name : Loops_2_-_Nagisa_and_Honoka_(2007)_[B3C77766].wmv
Format : Windows Media
File size : 300 MiB
Duration : 24 min 32 s
Overall bit rate mode : Variable
Overall bit rate : 1 709 kb/s
Maximum Overall bit rate : 356 Mb/s
Encoded date : UTC 2007-07-03 21:39:21.228
Writing application : TMPGEnc 4.0 XPress Version. 4.3.0.219
Video
ID : 2
Format : VC-1
Format profile : MP@ML
Codec ID : WMV3
Codec ID/Info : Windows Media Video 9
Codec ID/Hint : WMV3
Description of the codec : Windows Media Video 9 - Professional
Duration : 24 min 33 s
Bit rate mode : Variable
Bit rate : 1 500 kb/s
Width : 640 pixels
Height : 480 pixels
Display aspect ratio : 4:3
Frame rate : 24.000 FPS
Color space : YUV
Chroma subsampling : 4:2:0
Bit depth : 8 bits
Scan type : Progressive
Compression mode : Lossy
Bits/(Pixel*Frame) : 0.203
Stream size : 263 MiB (88%)
Language : Japanese
Audio
ID : 1
Format : WMA
Format version : Version 2
Codec ID : 161
Codec ID/Info : Windows Media Audio
Description of the codec : Windows Media Audio 9.2 - 192 kbps, 48 kHz, stereo 2-pass VBR
Duration : 24 min 32 s
Bit rate mode : Variable
Bit rate : 193 kb/s
Channel(s) : 2 channels
Sampling rate : 48.0 kHz
Bit depth : 16 bits
Stream size : 33.9 MiB (11%)
Language : Japanese
- Loops 3 - Cattleya -
ループス3-カトレア-

Год выпуска: 2009
Жанр: parody, big breast, oral, creampie
Серии: ep. 1 of 1
Продолжительность: 15mn
Цензура: Есть во всех файлах
Озвучка: Японская оригинальная
Субтитры: Японские встроенные неотключаемые (хардсаб)
Студия: MegaroMania
Описание: 3rd volume of the animation story series.
Качество видео: WEB-DL
Разрешение видео: 480p
Формат видео: WMV
Видео: 640-480, 4-3, 29.97 fps, VC-1 / WMV3, 2000 kbps
Аудио: jpn, WMA2, Stereo, 48.0 KHz, 192 kbps

Скринлист

MediaInfo

General
Complete name : Loops_3_-_Cattleya_(2009)_[CD7E61B7].wmv
Format : Windows Media
File size : 198 MiB
Duration : 15 min 25 s
Overall bit rate mode : Variable
Overall bit rate : 1 796 kb/s
Maximum Overall bit rate : 2 214 kb/s
Encoded date : UTC 2009-12-07 07:57:38.656
Writing application : TMPGEnc 4.0 XPress Version. 4.7.3.292
Video
ID : 2
Format : VC-1
Format profile : MP@ML
Codec ID : WMV3
Codec ID/Info : Windows Media Video 9
Codec ID/Hint : WMV3
Description of the codec : Windows Media Video 9 - Professional
Duration : 15 min 25 s
Bit rate mode : Variable
Bit rate : 2 000 kb/s
Width : 640 pixels
Height : 480 pixels
Display aspect ratio : 4:3
Frame rate : 29.970 (29970/1000) FPS
Color space : YUV
Chroma subsampling : 4:2:0
Bit depth : 8 bits
Scan type : Progressive
Compression mode : Lossy
Bits/(Pixel*Frame) : 0.217
Stream size : 221 MiB
Language : Japanese
Audio
ID : 1
Format : WMA
Format version : Version 2
Codec ID : 161
Codec ID/Info : Windows Media Audio
Description of the codec : Windows Media Audio 9.2 - 192 kbps, 48 kHz, stereo 2-pass CBR
Duration : 15 min 25 s
Bit rate mode : Constant
Bit rate : 192 kb/s
Channel(s) : 2 channels
Sampling rate : 48.0 kHz
Bit depth : 16 bits
Stream size : 21.2 MiB (11%)
Language : Japanese
- Loops 4 - RD -
ループス4 -あーるでぃ-

Год выпуска: 2011
Жанр: paizuri, oral, big breast
Серии: ep. 1 of 1
Продолжительность: 18mn
Цензура: Есть во всех файлах
Озвучка: Японская оригинальная
Субтитры: Японские встроенные неотключаемые (хардсаб)
Студия: MegaroMania
Описание: 4th volume of the animation story series. Join two busty girls at a hotel.
]
Качество видео: WEB-DL
Разрешение видео: 480p
Формат видео: MKV
Видео: 640-480, 4-3, 24 fps, AVC, 572 kbps
Аудио: jpn, AAC, Stereo, 48.0 KHz, 154 kbps

Скринлист

log

File: Loops_4_-_RD_(2011)_[01E21985].mkv
Duration: 00:17:40 (1060.25)
Track #1: video
lang: und (1)
codc: V_MPEG4/ISO/AVC -> H264/AVC (22)
reso: 640x480 -> 4:3
fram: 24 fps
rate: 572 kbps (571.857)
dura: 00:17:40 (1060.21)
size: 72.28 MB (75785977)
Track #2: audio
lang: und -> Unknown (1)
codc: A_AAC -> AAC (9)
chan: 2 -> Stereo
samp: 48000 Hz
rate: 154 kbps (154.44)
dura: 00:17:40 (1060.22)
size: 19.52 MB (20467659)
Sizes: (check sanity)
disk: 92.30 MB (96783048)
trac: 91.79 MB (96253636) [based on track size]
bitr: 91.79 MB (96253188) [based on bitrate]
tdif: 517.00 KB (529412) 0.54%
bdif: 517.44 KB (529859) 0.54%
- Loops 6 - Airfield girl -
ループス6-飛行場娘-

Год выпуска: 2015
Жанр: parody, tentacle, big breast
Серии: ep. 1 of 1
Продолжительность: 15mn
Цензура: Есть во всех файлах
Озвучка: Японская оригинальная
Студия: MegaroMania
Описание: Tentacles and an electric eel. Strapped to a sunken vessel and stimulated. Long intercourse with a golem.
Качество видео: WEB-DL
Разрешение видео: 540p
Формат видео: MP4
Видео: 960-540, 16-9, 24 fps, AVC, 2378 kbps
Аудио: jpn, AAC, Stereo, 48.0 KHz, 126 kbps

Скринлист

MediaInfo

General
Complete name : Loops_6_-_Airfield_girl_(2015)_[8B75E871].mp4
Format : MPEG-4
Format profile : Base Media
Codec ID : isom (mp41)
File size : 264 MiB
Duration : 14 min 59 s
Overall bit rate mode : Variable
Overall bit rate : 2 465 kb/s
Encoded date : UTC 2015-07-22 19:16:08
Tagged date : UTC 2015-07-22 19:16:08
Writing application : GOM ENCODER (GMp4Writer 1.0)
Comment : QuickTime 6.0 or greater
Video
ID : 1
Format : AVC
Format/Info : Advanced Video Codec
Format profile : Main@L3.1
Format settings, CABAC : Yes
Format settings, ReFrames : 1 frame
Format settings, GOP : N=1
Codec ID : avc1
Codec ID/Info : Advanced Video Coding
Duration : 14 min 43 s
Source duration : 14 min 43 s
Bit rate : 2 378 kb/s
Width : 960 pixels
Height : 540 pixels
Display aspect ratio : 16:9
Frame rate mode : Variable
Frame rate : 24.000 FPS
Minimum frame rate : 23.990 FPS
Maximum frame rate : 24.232 FPS
Color space : YUV
Chroma subsampling : 4:2:0
Bit depth : 8 bits
Scan type : Progressive
Bits/(Pixel*Frame) : 0.191
Stream size : 251 MiB (95%)
Source stream size : 251 MiB (95%)
Language : English
Encoded date : UTC 2015-07-22 19:16:08
Tagged date : UTC 2015-07-22 19:16:08
mdhd_Duration : 883626
Audio
ID : 2
Format : AAC
Format/Info : Advanced Audio Codec
Format profile : LC
Codec ID : 40
Duration : 14 min 59 s
Source duration : 15 min 0 s
Bit rate mode : Variable
Bit rate : 126 kb/s
Maximum bit rate : 250 kb/s
Channel(s) : 2 channels
Channel positions : Front: L R
Sampling rate : 48.0 kHz
Frame rate : 46.875 FPS (1024 spf)
Compression mode : Lossy
Stream size : 13.5 MiB (5%)
Source stream size : 13.5 MiB (5%)
Language : English
Encoded date : UTC 2015-07-22 19:16:08
Tagged date : UTC 2015-07-22 19:16:08
mdhd_Duration : 899988
- Warm little girl's milk
ナマアタタカ少女ミルク

Год выпуска: 2008
Жанр: romance, oral, creampie
Серии: ep. 1 of 1
Продолжительность: 21mn
Цензура: Есть во всех файлах
Озвучка: Японская оригинальная
Студия: MegaroMania
Описание: When a guy returned home, he meets his old time sweetheart. Checking each other's feeling, they become lovers and seek for aggressive sex... till the end.
Качество видео: WEB-DL
Разрешение видео: 480p
Формат видео: WMV
Видео: 640-480, 4-3, 24 fps, VC-1 / WMV3, 2000 kbps
Аудио: jpn, WMA2, Stereo, 48.0 KHz, 192 kbps

Скринлист

MediaInfo

General
Complete name : Warm_little_girl's_milk_(2008)_[5334A5FA].wmv
Format : Windows Media
File size : 187 MiB
Duration : 20 min 37 s
Overall bit rate mode : Constant
Overall bit rate : 1 269 kb/s
Maximum Overall bit rate : 2 211 kb/s
Encoded date : UTC 2008-06-25 16:07:06.116
Writing application : TMPGEnc 4.0 XPress Version. 4.5.0.252
Video
ID : 2
Format : VC-1
Format profile : MP@ML
Codec ID : WMV3
Codec ID/Info : Windows Media Video 9
Codec ID/Hint : WMV3
Description of the codec : Windows Media Video 9 - Professional
Duration : 20 min 37 s
Bit rate mode : Constant
Bit rate : 2 000 kb/s
Width : 640 pixels
Height : 480 pixels
Display aspect ratio : 4:3
Frame rate : 24.000 FPS
Color space : YUV
Chroma subsampling : 4:2:0
Bit depth : 8 bits
Scan type : Progressive
Compression mode : Lossy
Bits/(Pixel*Frame) : 0.271
Stream size : 295 MiB
Language : Japanese
Audio
ID : 1
Format : WMA
Format version : Version 2
Codec ID : 161
Codec ID/Info : Windows Media Audio
Description of the codec : Windows Media Audio 9.2 - 192 kbps, 48 kHz, stereo 2-pass CBR
Duration : 20 min 37 s
Bit rate mode : Constant
Bit rate : 192 kb/s
Channel(s) : 2 channels
Sampling rate : 48.0 kHz
Bit depth : 16 bits
Stream size : 28.3 MiB (15%)
Language : Japanese
[xxxtorrents.pro].t7173.torrent 
Торрент: Зарегистрирован [ 2018-01-25 17:24 ] · 5DDB75A630C30B37820ED948F8D6DEB73E3D24C6

Скачать .torrent

Скачать

23 KB

Статус: проверено
Скачан: 10 раз
Размер: 3.82 GB  ·  Тип торрента
terms.php
[Профиль] [ЛС]

Flacky

Пол: Мужской

Стаж: 1 год

Сообщений: 1

Создавать темы 27-Янв-2020 19:54 (спустя 2 года)

[Цитировать]

Скачавшие вернитесь на раздачу плз
[Профиль] [ЛС]
Показать сообщения:    
Ответить на тему

Текущее время: 18-Сен 13:20

Часовой пояс: UTC ± 0



Вы не можете начинать темы
Вы не можете отвечать на сообщения
Вы не можете редактировать свои сообщения
Вы не можете удалять свои сообщения
Вы не можете голосовать в опросах
Вы не можете прикреплять файлы к сообщениям
Вы можете скачивать файлы